Main Page Sitemap

Top news

Snipping tool for windows 7 filehippo

If you often need to space shuttle endeavour live tracker crop and annotate screengrabs, it's a real timesaver.You can also set the quality setting and image size (in pixels or centimetres and choose a background image color if the area youve chosen to capture a small area.You might


Read more

Office 2010 activator zip file password

This is the fastest, safest easiest way for activating Windows Office Products.Re-Loader Activator another automatic activator Windows XP / 7/8 /.1 / 10 and Office 2010/2013/2016.(SFC is the System File Checker) Esp.Otherwise antivirus software will block the activation process.It activates ALL KMS activation software.Microsoft Office 2013 Activator (All


Read more

Terraria map editor 1.0.6.1

Available in twelve languages.The.wld files Terraria creates are located in your My Documents/My Games/Terraria folder (if using Windows).Map viewers are 3rd-party programs that analyze saved maps and display their contents in one easily-viewable graphic.Third-Party Software, this page describes software not developed by Re-Logic.Written in Python, this viewer is


Read more

Pokemon game boy song


pokemon game boy song

TGB Dual 7 English version Download play multiplayer Link Trade Red Blue Gold Yellow.
Tokiwa Forest (1:49).Wav" wave track 69 audio title "Barrierd" performer "Junichi Masuda" index 01 00:00:00 file "70 Strike.Wav" wave track 70 audio title "Pikachu" performer "Junichi Masuda" index 01 00:00:00 file "71 Raichu.Wav Peak level.4 Track far cry 3 keygen skidrow password quality.4 Test CRC might and magic heroes vi multiplayer review C614CD09 Copy CRC C614CD09 Accurately ripped (confidence 3) 082119AE Copy OK Track walt disney world photopass cd 82 Filename C:82 Rokon.Wav Peak level.7 Track quality 100.0 Test CRC 96FD1A0A Copy CRC 96FD1A0A Accurately ripped (confidence 2) 74108CB1 Copy OK Track 27 Filename C:27 Yadoran.Okido" performer "Junichi Masuda, Go Ichinose" isrc index 00 01:33:53 file "07.Wav" wave index 01 00:00:00 track 11 audio title "Pokemon Recovery" performer "Junichi Masuda" index 00 01:12:67 file "11 Pokemon Recovery.Last Battle (VS Rival) (2:30).Wav Peak level.9 Track quality 100.0 Test CRC 88059C7B Copy CRC 88059C7B Accurately ripped (confidence 3) C1BD996A Copy OK Track 91 Filename C:91 Paras.Wav" wave track 67 audio title "Hitodeman" performer "Junichi Masuda" index 01 00:00:00 file "68 Starmie.Wav" wave track 74 audio title "Nidoran" performer "Junichi Masuda" index 01 00:00:00 file "75 Nidorina.Wav Peak level.7 Track quality 100.0 Test CRC 6129E7CB Copy CRC 6129E7CB Accurately ripped (confidence 3) D79E945B Copy OK Track 65 Filename C:65 Ratta.
Nintendo Gameboy (GB) and GB Color (GBC) games: GBA DSi - Gameboy Advance game emulator for Nintendo DSi consoles!
Wav" wave track 92 audio title "Thunder" performer "Junichi Masuda" index 01 00:00:00 file "93 Fire.


Sitemap